Skip to main content

Monks of Doom Live at Bottom of the Hill on 1998-09-17

Audio Preview

etree
Monks of Doom Live at Bottom of the Hill on 1998-09-17




Intro, Cherry Blossom Baptism, In Anticipation of the Pope, River Bed, Unexplained Murders, The Traveler, Going South, Cavalry, The Vivian Girls, Jim Gore and the Ghost of Missouri, The Insect God, Medley - Hieroglyphic, Better Angels Of our Nature, Vaporize your Crystals, Let's Split, Ukranian Technological Faith Dance, Follow the Queen, Oh Well, B-Music, Tanguedia, In Anticipation of the Pope, Going South, Follow the Queen, Better Angels of our Nature


Collection MonksofDoom
Band/Artist Monks of Doom
Venue Bottom of the Hill
Location San Francisco, CA

Source SBD > DAT> CAS> CD > SHN
Lineage DAT > shn > flac
Taped by ?
Transferred by ? / TAS

Notes

Farewell Show

Recorded off the board to Dat to high bias cassette to CD
Near perfect show, near perfect recording! Sound is amazing!

Disc 1

1 - Intro 00:38
2- Cherry Blossom Baptism 06:24
3- In Anticipation of the Pope 03:37
4 - River Bed 04:18
5 - Unexplained Murders 03:44
6 - The Traveler 05:37
7 - Going South 07:12
8 - Cavalry 04:38
9 - The Vivian Girls 02:47
10 - Jim Gore and the Ghost of Missouri 03:47
11 - The Insect God 09:10
12 - Medley - Hieroglyphic 05:45
13 - Better Angels Of our Nature 04:37

Disc 2

1 - Vaporize your Crystals 03:34
2 - Let's Split 01:31
3 - Ukranian Technological Faith Dance 04:33
4 - Encore 1 Follow the Queen 03:07
5 - Encore 1 Oh Well 04:16
6 - Encore 2 B-Music 03:35
7 - Encore 2 Tanguedia 05:35

From Sound Check
8 - In Anticipation of the Pope 03:53
9 - Going South 06:44
10 - Follow the Queen 02:59
11 - Better Angels of our Nature 04:07


length expanded size cdr WAVE problems filename
0:38.08 6722060 --- -- ---xx mod1998-09-17d1t01.flac
6:24.10 67761164 --- -- ---xx mod1998-09-17d1t02.flac
3:37.52 38401148 --- -- ---xx mod1998-09-17d1t03.flac
4:18.04 45520652 --- -- ---xx mod1998-09-17d1t04.flac
3:44.03 39520700 --- -- ---xx mod1998-09-17d1t05.flac
5:37.66 59602076 --- -- ---xx mod1998-09-17d1t06.flac
7:12.49 76320092 --- -- ---xx mod1998-09-17d1t07.flac
4:38.01 49041596 --- -- ---xx mod1998-09-17d1t08.flac
2:47.27 29522348 --- -- ---xx mod1998-09-17d1t09.flac
3:47.16 40080476 --- -- ---xx mod1998-09-17d1t10.flac
9:10.43 97121180 --- -- ---xx mod1998-09-17d1t11.flac
5:45.60 60999164 --- -- ---xx mod1998-09-17d1t12.flac
4:37.26 48923996 --- -- ---xx mod1998-09-17d1t13.flac
3:34.73 37921340 --- -- ---xx mod1998-09-17d2t01.flac
1:31.46 16160636 --- -- ---xx mod1998-09-17d2t02.flac
4:33.02 48161948 --- -- ---xx mod1998-09-17d2t03.flac
3:07.57 33120908 --- -- ---xx mod1998-09-17d2t04.flac
4:16.52 45280748 --- -- ---xx mod1998-09-17d2t05.flac
3:35.66 38081276 --- -- ---xx mod1998-09-17d2t06.flac
5:35.12 59122268 --- -- ---xx mod1998-09-17d2t07.flac
3:53.43 41202380 --- -- ---xx mod1998-09-17d2t08.flac
6:44.33 71343260 --- -- ---xx mod1998-09-17d2t09.flac
2:59.18 31617980 --- -- ---xx mod1998-09-17d2t10.flac
4:07.13 43601420 --- -- ---xx mod1998-09-17d2t11.flac
106:18.30 1125150816 B (totals for 24 files, 0.5561 overall compression ratio)

comment
Reviews

Reviewer: Stunet - favoritefavoritefavoritefavoritefavorite - November 14, 2008
Subject: I miss my Monks
YES! Granny Killam's! Wow.
Reviewer: morst - - November 9, 2008
Subject: Granny Killam's?
Sounds like you are talking about a club called Granny Killam's. A websearch indicates that it is now called the Big Easy at 164 Middle St. Sounds like a great couple gigs. If anyone at all has more uncirculated Monks Of Doom, Cracker or Camper-related recordings, please get in contact with me at acffhmorst at gmail dot com.
Reviewer: mick dillingham - favoritefavoritefavoritefavoritefavorite - December 21, 2005
Subject: the best damn show on the whole archive
indeed..i've had this for a few years already but it is wonderful to see it up on the archive. brilliant quality, stunning playing...the Monks Of Doom come on like an americana king crimson(bruford/wetton crimbo)but with far superior songs.Magestic and so powerful that they could blow any band off the stage just tuning up. Check out the cover of fleetwood's oh well if you doubt my hyperbol is not entirely justified. This is genius.
DOWNLOAD OPTIONS
In Collection
Monks of Doom
In Collection
Live Music Archive
Uploaded by
morst
on 12/21/2005
Views
39,813
Favorites
6
Reviews
3
SIMILAR ITEMS (based on metadata)
Monks of Doom
by Monks of Doom
etree
eye 7,369
favorite 2
comment 3
favoritefavoritefavoritefavoritefavorite ( 3 reviews )
Source: AUD > MD
Monks of Doom
by Monks of Doom
etree
eye 4,913
favorite 3
comment 2
favoritefavoritefavoritefavoritefavorite ( 2 reviews )
Source: AUD > MD
Monks of Doom
by Monks of Doom
etree
eye 802
favorite 1
comment 3
favoritefavoritefavoritefavoritefavorite ( 3 reviews )
Source: Neumann KM-140 > Beyer MV100 > Sony SBM-1 > Sony D8
Monks of Doom
by Monks of Doom
etree
eye 2,298
favorite 1
comment 0
Source: Stereo mic > Sony D3 > MCAS
Monks of Doom
by Monks of Doom
etree
eye 22,213
favorite 1
comment 3
favoritefavoritefavoritefavorite ( 3 reviews )
Source: Realistic 33-1063 omni mic > Marantz PMD430 cassette deck w/ Dolby B NR
Monks of Doom
by Monks of Doom
etree
eye 2,839
favorite 1
comment 1
favoritefavoritefavoritefavoritefavorite ( 1 reviews )
Source: ECM 929> D6> M EQ 230 > SV-3700 > HHB 830 30'Stage Center
Monks of Doom
by Monks of Doom
etree
eye 1,388
favorite 1
comment 0
Source: SBD?
Monks of Doom
by Monks of Doom
etree
eye 565
favorite 1
comment 0
Source: DPA 4061 mics > Sony PCM-D50 > WAV @48/24
Monks of Doom
by Monks of Doom
etree
eye 191
favorite 1
comment 0
Source: DPA 4061 mics > Sony PCM-D50 > WAV @48/24
Monks of Doom
by Monks of Doom
etree
eye 1,293
favorite 1
comment 0
Source: AKG C522MS ("The Pickle Mic") > Grace Lunatec V3 (mic preamp & A>D converter) + Soundcraft 800B SBD > Edirol R44 > WAVs @48kHz/24bit